Inicio|Registrarse | Entrada HolaVisitante|RSS
[ Mensajes nuevos · Usuarios · Normas del foro · Buscar · RSS ]
  • Página 1 de 1
  • 1
Moderador del foro: jarpomarx, -EkIkE-  
Forum » Videos » Videos en DVD » BLACK SABBATH - Athens 2005 / New York 1992 ((2x / Pro-Aud-Shows) - DVD-9)
BLACK SABBATH - Athens 2005 / New York 1992
unica723Fecha: Lunes, 2011-07-18, 8:19 PM | Mensaje # 1
EsparaelMetalTeaM
Grupo: Administradores
Mensajes: 15967
Reputación: 121
Estatus: Offline
BLACK SABBATH - Athens 2005 / New York 1992



01 Intro
02 N.I.B.
03 After Forever
04 War Pigs
05 Dirty Women
06 Fairies Wear Boots
07 (riffs)
08 Electric Funeral
09 Iron Man
10 Into The Void
11 Black Sabbath
12 The Wizard
13 (riffs)
14 Paranoid
15 Sleeping Village
16 Children Of The Grave
***

1992-10-14 - Beacon Theater, New York, NY

01 Intro-E5150
02 The Mob Rules
03 Computer God
04 Children Of The Sea
05 Time Machine
06 War Pigs
07 I
08 Die Young
09 Guitar Solo
10 Black Sabbath
11 Master Of Insanity -> After All (The Dead)
12 Drum Solo
13 Iron Man
14 Heaven And Hell
15 Neon Knights
16 Paranoid

***

DVD-Project created by SNiFFY
DVD-Source, Menu-Sound, Menu-Picture-Idea,
Bullshit-Talking to myself...
also by SNiFFY.

P.S.: Hello World, feel free to create a DVD-Cover!

General
Complete name : E:\\VIDEO_TS\VTS_01_1.VOB
Format : MPEG-PS
File size : 1 000 MiB
Duration : 22mn 32s
Overall bit rate : 6 203 Kbps

Video
ID : 224 (0xE0)
Format : MPEG Video
Format version : Version 2
Format profile : Main@Main
Format settings, BVOP : Yes
Format settings, Matrix : Default
Duration : 22mn 32s
Bit rate mode : Variable
Bit rate : 5 765 Kbps
Nominal bit rate : 8 000 Kbps
Width : 720 pixels
Height : 480 pixels
Display aspect ratio : 4:3
Frame rate : 29.970 fps
Standard : NTSC
Resolution : 8 bits
Colorimetry : 4:2:0
Scan type : Interlaced
Scan order : Bottom Field First
Bits/(Pixel*Frame) : 0.557
Stream size : 930 MiB (93%)

Audio
ID : 128 (0x80)
Format : AC-3
Format/Info : Audio Coding 3
Duration : 22mn 32s
Bit rate mode : Constant
Bit rate : 192 Kbps
Channel(s) : 2 channels
Channel positions : L R
Sampling rate : 48.0 KHz
Stream size : 31.0 MiB (3%)

Menu

General
Complete name : E:\\VIDEO_TS\VTS_01_2.VOB
Format : MPEG-PS
File size : 1 000 MiB
Duration : 22mn 28s
Overall bit rate : 6 220 Kbps

Video
ID : 224 (0xE0)
Format : MPEG Video
Format version : Version 2
Format profile : Main@Main
Format settings, BVOP : Yes
Format settings, Matrix : Default
Duration : 22mn 28s
Bit rate mode : Variable
Bit rate : 5 781 Kbps
Nominal bit rate : 8 000 Kbps
Width : 720 pixels
Height : 480 pixels
Display aspect ratio : 4:3
Frame rate : 29.970 fps
Standard : NTSC
Resolution : 8 bits
Colorimetry : 4:2:0
Scan type : Interlaced
Scan order : Bottom Field First
Bits/(Pixel*Frame) : 0.558
Stream size : 929 MiB (93%)

Audio
ID : 128 (0x80)
Format : AC-3
Format/Info : Audio Coding 3
Duration : 22mn 28s
Bit rate mode : Constant
Bit rate : 192 Kbps
Channel(s) : 2 channels
Channel positions : L R
Sampling rate : 48.0 KHz
Video delay : -179ms
Stream size : 30.9 MiB (3%)

Accesible sólo a usuarios

Mirror:

Accesible sólo a usuarios
Archivos adjuntos: 1145725.jpg(89.8 Kb) · 1011563.jpg(45.3 Kb)


 
Forum » Videos » Videos en DVD » BLACK SABBATH - Athens 2005 / New York 1992 ((2x / Pro-Aud-Shows) - DVD-9)
  • Página 1 de 1
  • 1
Búscar:

Hoy nos han visitado:
shelekhov2, mjmurero

Este sitio no contiene ningún tipo de fichero ó archivo que viole la propiedad intelectual.
Somos un foro gratuito y sin ningun lucro implicito.
EsparaelMetal no se hace responsable de cualquier posible violacion a cosa con copyright.
Todo lo aquí publicado ha sido encontrado en el libre internet.
EsparaelMetal@2010 Algunos derechos reservados

Web optimizada para una resolucion de 1024x768


Copyright MyCorp © 2021