Inicio|Registrarse | Entrada HolaVisitante|RSS
[ Mensajes nuevos · Usuarios · Normas del foro · Buscar · RSS ]
Página 1 de 11
Moderador del foro: jarpomarx, -EkIkE- 
Forum » Videos » Videos en DVD » Cornelius - Five Point One (2003) ((DVD9) + PM (Point Remixes))
Cornelius - Five Point One (2003)
unica723Fecha: Martes, 2015-04-07, 8:29 AM | Mensaje # 1
EsparaelMetalTeaM
Grupo: Administradores
Mensajes: 15966
Reputación: 121
Estatus: Offline


WIKIPEDIA

Discography


The First Question Award (1994)
69/96 (1995)
Fantasma (1997)
Point (2001)
Sensuous (2006)


Five Point One (2003)



1 Point Of View Point
2 Smoke
3 Drop
4 Drop - Do It Again
5 Another View Point
6 Bird Watching At Inner Forest
7 I Hate Hate
8 Fly
9 Tone Twilight Zero
10 From Nakameguro To Everywhere


DVD Info

Format : MPEG-PS
File size : 1 024 MiB
Duration : 49s 950ms
Overall bit rate mode : Variable
Overall bit rate : 172 Mbps

Video
ID : 224 (0xE0)
Format : MPEG Video
Format version : Version 2
Format profile : Main@Main
Format settings, BVOP : Yes
Format settings, Matrix : Custom
Format settings, GOP : M=3, N=15
Duration : 49s 950ms
Bit rate mode : Variable
Bit rate : 165 Mbps
Maximum bit rate : 6 728 Kbps
Width : 720 pixels
Height : 480 pixels
Display aspect ratio : 4:3
Frame rate : 29.970 fps
Standard : NTSC
Color space : YUV
Chroma subsampling : 4:2:0
Bit depth : 8 bits
Scan type : Interlaced
Scan order : Top Field First
Compression mode : Lossy
Bits/(Pixel*Frame) : 15.976
Time code of first frame : 01:00:00:00
Time code source : Group of pictures header
Stream size : 985 MiB (96%)

Audio #1
ID : 189 (0xBD)-160 (0xA0)
Format : PCM
Format settings, Endianness : Big
Format settings, Sign : Signed
Muxing mode : DVD-Video
Duration : 49s 836ms
Bit rate mode : Constant
Bit rate : 1 536 Kbps
Channel(s) : 2 channels
Sampling rate : 48.0 KHz
Bit depth : 16 bits
Stream size : 9.13 MiB (1%)

Audio #2
ID : 189 (0xBD)-161 (0xA1)
Format : PCM
Format settings, Endianness : Big
Format settings, Sign : Signed
Muxing mode : DVD-Video
Duration : 49s 836ms
Bit rate mode : Constant
Bit rate : 1 536 Kbps
Channel(s) : 2 channels
Sampling rate : 48.0 KHz
Bit depth : 16 bits
Stream size : 9.13 MiB (1%)






PM (Point Remixes) (2003)



01 - another psychedelic point - dritt drittel mix
02 - kawatolius - kawatory mix
03 - noise of the apache - tomioka mix
04 - bombasstic re bomb - animal family f mc cat genius mix
05 - a point remix
06 - free from the point mix
07 - the walk of basset hound - panpease records
08 - daydreaming - kyun baek mix
09 - multi ebbing view points - fashion flesh mix
10 - flugsnappare - viktor sjoberg mix
11 - pointer remix
12 - point of view point mix

6.41 GB
Disponible sólo a los usuarios
Archivos adjuntos: 3263899.jpg(36Kb)


 
Forum » Videos » Videos en DVD » Cornelius - Five Point One (2003) ((DVD9) + PM (Point Remixes))
Página 1 de 11
Búscar:

Hoy nos han visitado:
arc300, Moonchild88, victordark666, dollybell, bajkofe, cardonzzzz

Este sitio no contiene ningún tipo de fichero ó archivo que viole la propiedad intelectual.
Somos un foro gratuito y sin ningun lucro implicito.
EsparaelMetal no se hace responsable de cualquier posible violacion a cosa con copyright.
Todo lo aquí publicado ha sido encontrado en el libre internet.
EsparaelMetal@2010 Algunos derechos reservados

Web optimizada para una resolucion de 1024x768


Copyright MyCorp © 2017