Inicio|Registrarse | Entrada HolaVisitante|RSS
[ Mensajes nuevos · Usuarios · Normas del foro · Buscar · RSS ]
Página 1 de 11
Moderador del foro: jarpomarx, -EkIkE- 
Forum » Videos » Videos en DVD » Iced Earth - Live In Ancient Kourion (2013)
Iced Earth - Live In Ancient Kourion (2013)
unica723Fecha: Sábado, 2014-01-04, 11:18 AM | Mensaje # 1
EsparaelMetalTeaM
Grupo: Administradores
Mensajes: 15966
Reputación: 121
Estatus: Offline
Iced Earth - Live In Ancient Kourion (2013)



Band:

Iced Earth is an American Heavy Metal band from Tampa, Florida, formed
in 1985, by guitarist and main songwriter Jon Schaffer and original
drummer Greg Seymour. Originally founded under the name "Purgatory",
Iced Earth released their debut album in 1990. Since then, the band have
released a total of ten studio albums, four EPs, three compilations,
three box sets, one live album and one covers album.

After releasing two studio albums in 1990 and 1991, respectively, Iced
Earth took a three year layoff, from 1992 to 1995, after which the band
returned with new lead vocalist Matt Barlow. Iced Earth went on to
release four studio albums with Barlow, between 1995 and 2001
respectively; 1995's Burnt Offerings, 1996's The Dark Saga, 1998's
Something Wicked This Way Comes and 2001's Horror Show.

After Horror Show, Barlow quit the band and joined the police force,
while Iced Earth continued on with Tim "Ripper" Owens, of Judas Priest
fame, on vocals. With Owens, the band released two studio albums (2004's
The Glorious Burden and 2007's Framing Armageddon), until late 2007,
when it was announced that Matt Barlow would be rejoining the band,
after five years apart. Iced Earth recorded the album The Crucible of
Man with Barlow in 2008, but in 2011 it was announced that he would be
leaving the band once again, this time for good. Later that year, Into
Eternity frontman Stu Block was announced as Iced Earth's new lead
vocalist. Dystopia, Block's first album with the group, was released in
October 2011, and was met with a very positive response, with some
critics calling Dystopia one of Iced Earth's best albums.

Since its inception, Iced Earth has had numerous line-up changes, with
founder Jon Schaffer staying as the only constant member. As of 2013,
there have been over twenty musicians in and out of Iced Earth since its
formation in 1985 (see: List of Iced Earth band members for more
details). Currently the band is composed of rhythm guitarist Jon
Schaffer, lead guitarist Troy Seele, singer Stu Block, bassist Luke
Appleton and drummer Jon Dette.



Tracklist:
01. Intro -- 01:17
02. Dystopia -- 04:55
03. Burning Times -- 03:39
04. Angel's Holocaust -- 04:34
05. Slave to the Dark -- 04:49
06. V -- 03:27
07. When the Night Falls -- 08:09
08. I Died for You -- 04:06
09. Invasion/Motivation of Man -- 03:01
10. Setian Massacre -- 04:55
11. Stormrider -- 04:12
12. Pure Evil -- 06:01
13. Wolf -- 06:03
14. Dark City -- 05:57
15. Dracula -- 05:59
16. Ten Thousand Strong -- 04:54
17. Anthem -- 04:49
18. Declaration Day -- 04:23
19. Days of Rage -- 03:08
20. Melancholy -- 08:09
21. In Sacred Flames -- 01:29
22. Boiling Point -- 03:29
23. Damien -- 09:53
24. Watching Over Me -- 07:20
25. Dante's Inferno -- 17:52
26. Iced Earth -- 07:10
27. The Hunter -- 05:55
Total time: 02:35:49

Release specifications:
General
Unique ID: 188365497008979789186573246013923591563 (0x8DB5E007B9FF67839A651903599B058B)
Complete name: P:\uTorrent\Iced Earth - Live in Ancient Kourion
(2013)-alE13\Iced Earth - Live in Ancient Kourion (2013)_Rip.-alE13.mkv
Format: Matroska
Format version: Version 4 / Version 2
File size: 4.69 GiB
Duration: 2h 35mn
Overall bit rate: 4 307 Kbps
Movie name: Iced Earth - Live in Ancient Kourion (2013)_Rip.-alE13
Encoded date: UTC 2013-06-20 17:23:49
Writing application: mkvmerge v6.1.0 ('Old Devil' built on Mar  2 2013 14:32:37
Writing library: libebml v1.3.0 + libmatroska v1.4.0

Video
ID: 1
Format: AVC
Format/Info: Advanced Video Codec
Format profile: Main@L4.0
Format settings, CABAC: Yes
Format settings, ReFrames: 2 frames
Codec ID: V_MPEG4/ISO/AVC
Duration: 2h 35mn
Bit rate: 2 800 Kbps
Width: 1 920 pixels
Height: 1 080 pixels
Display aspect ratio: 16:9
Frame rate mode: Constant
Frame rate: 24.000 fps
Color space: YUV
Chroma subsampling: 4:2:0
Bit depth: 8 bits
Scan type: Progressive
Bits/(Pixel*Frame): 0.056
Stream size: 2.95 GiB (63%)
Title: Iced Earth - Live in Ancient Kourion (2013)_Rip.-alE13
Writing library: x264 core 112 r1834 a51816a
Encoding settings: cabac=1 / ref=1 / deblock=1:0:0 / analyse=0x1:0 /
me=dia / subme=2 / psy=1 / psy_rd=0.00:0.00 / mixed_ref=0 / me_range=16 /
chroma_me=1 / trellis=0 / 8x8dct=0 / cqm=0 / deadzone=21,11 /
fast_pskip=1 / chroma_qp_offset=0 / threads=4 / sliced_threads=0 / nr=0 /
decimate=1 / interlaced=0 / constrained_intra=0 / bframes=3 /
b_pyramid=0 / b_adapt=1 / b_bias=0 / direct=3 / weightb=0 / open_gop=0 /
weightp=2 / keyint=250 / keyint_min=25 / scenecut=40 / intra_refresh=0 /
rc_lookahead=40 / rc=abr / mbtree=1 / bitrate=2800 / ratetol=1.0 /
qcomp=0.60 / qpmin=10 / qpmax=51 / qpstep=4 / ip_ratio=1.41 / aq=1:1.00
Default: Yes
Forced: No

Audio
ID: 2
Format: DTS
Format/Info: Digital Theater Systems
Mode: 16
Format settings, Endianness: Big
Codec ID: A_DTS
Duration: 2h 35mn
Bit rate mode: Constant
Bit rate: 1 509 Kbps
Channel(s): 6 channels
Channel positions: Front: L C R, Side: L R, LFE
Sampling rate: 48.0 KHz
Bit depth: 24 bits
Compression mode: Lossy
Stream size: 1.64 GiB (35%)
Title: Iced Earth - Live in Ancient Kourion (2013)_Rip.-alE13_DTS
Language: English
Default: Yes
Forced: No

4.70 GB
Disponible sólo a los usuarios
Archivos adjuntos: 4674661.jpg(42Kb)


 
Forum » Videos » Videos en DVD » Iced Earth - Live In Ancient Kourion (2013)
Página 1 de 11
Búscar:

Hoy nos han visitado:
jarpomarx, deickelman, elheavydelos80, jrkaiba1800, Snaggletooth, ritchieblackmore, hernandiegomartinez, cfrodriguez1992, erayen, eternalprods

Este sitio no contiene ningún tipo de fichero ó archivo que viole la propiedad intelectual.
Somos un foro gratuito y sin ningun lucro implicito.
EsparaelMetal no se hace responsable de cualquier posible violacion a cosa con copyright.
Todo lo aquí publicado ha sido encontrado en el libre internet.
EsparaelMetal@2010 Algunos derechos reservados

Web optimizada para una resolucion de 1024x768


Copyright MyCorp © 2017