Inicio|Registrarse | Entrada HolaVisitante|RSS
[ Mensajes nuevos · Usuarios · Normas del foro · Buscar · RSS ]
  • Página 1 de 1
  • 1
Moderador del foro: TUCO  
Forum » LOSSLESS [APE-FLAC-WavPack...] » Extreme Metal » NOKTURNAL MORTUM - To The Gates Of Blasphemous Fire (EAC-FLAC)
NOKTURNAL MORTUM - To The Gates Of Blasphemous Fire
TUCOFecha: Jueves, 2009-09-03, 9:51 AM | Mensaje # 1
EsparaelMetalTeaM
Grupo: EsparaelMetalTeaM
Mensajes: 718
Reputación: 27
Estatus: Offline

1. Bestial Summoning
2. To the Gates of Blasphemous Fire
3. On the Moonlight Path
4. The Hands of Chaos
5. Под Знаменами Рогатого Князя Under the Banners of the Horned Knjaz
6. The 13th Asbath Celebration
7. Cheremosh
8. The Forgotten Ages of Victories


Code
Exact Audio Copy V0.99 prebeta 5 from 4. May 2009

EAC extraction logfile from 23. August 2009, 15:23

Nokturnal Mortum / To The Gates Of Blasphemous Fire

Used drive  : MATSHITADVD-RAM UJ-850S   Adapter: 3  ID: 1

Read mode               : Secure
Utilize accurate stream : Yes
Defeat audio cache      : Yes
Make use of C2 pointers : No

Read offset correction                      : 102
Overread into Lead-In and Lead-Out          : No
Fill up missing offset samples with silence : Yes
Delete leading and trailing silent blocks   : No
Null samples used in CRC calculations       : Yes
Used interface                    : Native Win32 interface for Win NT & 2000

Used output format : Internal WAV Routines
Sample format      : 44.100 Hz; 16 Bit; Stereo

TOC of the extracted CD

      Track |   Start  |  Length  | Start sector | End sector
     ---------------------------------------------------------
         1  |  0:00.00 |  5:58.72 |         0    |    26921    
         2  |  5:58.72 |  5:27.05 |     26922    |    51451    
         3  | 11:26.02 |  5:24.00 |     51452    |    75751    
         4  | 16:50.02 |  5:09.15 |     75752    |    98941    
         5  | 21:59.17 |  5:57.40 |     98942    |   125756    
         6  | 27:56.57 |  8:29.73 |    125757    |   164004    
         7  | 36:26.55 |  6:06.45 |    164005    |   191499    
         8  | 42:33.25 |  6:52.00 |    191500    |   222399    

Range status and errors

Selected range

      Filename D:\Nokturnal Mortum\Nokturnal Mortum - To The Gates Of Blasphemous Fire.wav

      Peak level 97.9 %
      Range quality 99.9 %
      Copy CRC 2EFE824B
      Copy OK

No errors occurred

   
AccurateRip summary
   
Track  1  not present in database
Track  2  not present in database
Track  3  not present in database
Track  4  not present in database
Track  5  not present in database
Track  6  not present in database
Track  7  not present in database
Track  8  not present in database
   
None of the tracks are present in the AccurateRip database

End of status report


Accesible sólo a usuarios



Ваня всегда прав !!!
 
Forum » LOSSLESS [APE-FLAC-WavPack...] » Extreme Metal » NOKTURNAL MORTUM - To The Gates Of Blasphemous Fire (EAC-FLAC)
  • Página 1 de 1
  • 1
Búscar:

Hoy nos han visitado:
brocklesnar, shelekhov2, bayronaron17

Este sitio no contiene ningún tipo de fichero ó archivo que viole la propiedad intelectual.
Somos un foro gratuito y sin ningun lucro implicito.
EsparaelMetal no se hace responsable de cualquier posible violacion a cosa con copyright.
Todo lo aquí publicado ha sido encontrado en el libre internet.
EsparaelMetal@2010 Algunos derechos reservados

Web optimizada para una resolucion de 1024x768


Copyright MyCorp © 2020