Deep Purple [1999] [2CD] In Concert... - Forum
Inicio|Registrarse | Entrada HolaVisitante|RSS
[ Mensajes nuevos · Usuarios · Normas del foro · Buscar · RSS ]
Página 1 de 11
Moderador del foro: jarpomarx, TUCO 
Forum » LOSSLESS [APE-FLAC-WavPack...] » Rock-Hard Rock-Heavy Metal » Deep Purple [1999] [2CD] In Concert... (with the London Symphony Orchestra.)
Deep Purple [1999] [2CD] In Concert...
RivfaderFecha: Martes, 2013-09-17, 11:59 PM | Mensaje # 1
Pide asilo
Grupo: Usuarios
Mensajes: 3
Reputación: 3
Estatus: Offline

Deep Purple [1999] In Concert with The London Symphonic Orchestra





Epic concert recorded Live on 25-26.09.1999 at the Royal Albert Hall in London, The United Kingdom
This is the 30th anniversary live performance of Lord's Concerto and other songs.
The London Symphony Orchestra conducted by Paul Mann.


Tracklist:
CD ONE
01.     Pictured Within
02.     Wait While
03.     Siting In A Dream
04.     Love Is All
05.     Via Miami
06.     That's Why God Is Singing The Blues
07.     Take It Off The Top
08.     Wring That Neck
09.     Picture Of Home
CD TWO:
01.     Concerto Of Group And Orchestra Movement I
02.     Concerto Of Group And Orchestra Movement II
03.     Concerto Of Group And Orchestra Movement III
04.     Ted The Mechanic
05.     Watching The Sky
06.     Sometimes I Fell Like Screaming
07.     Somke On The Water


Label: ST2 Records / Eagle Records
Label code: -
Matrix #: CD ONE: A9M7D7 00067 CD1 YA! IND. ARG./39271
CD TWO: A9M7D22/06 0006-7 CD2 YA! MUSICA IND. ARG./39272
Master SID: CD ONE: IFPI LK51
CD TWO: IFPI LK51
Mould SID: CD ONE: IFPI 8604
CD TWO: IFPI 8604
Cat.#: ST2EA 067
Barcode: 7898103000675
Format: 2CD
Package: Jewel Case
Booklet: 6 Pages


File content:

Código
Deep Purple - In Concert with the London Symphony Orchestra (CD ONE).flac
Deep Purple - In Concert with the London Symphony Orchestra (CD ONE).cue
Deep Purple - In Concert with the London Symphony Orchestra (CD ONE).log
Deep Purple - In Concert with the London Symphony Orchestra (CD ONE).accurip
Deep Purple - In Concert with the London Symphony Orchestra (CD TWO).flac
Deep Purple - In Concert with the London Symphony Orchestra (CD TWO).cue
Deep Purple - In Concert with the London Symphony Orchestra (CD TWO).log
Deep Purple - In Concert with the London Symphony Orchestra (CD TWO).accurip
EsparaelMetal.url
EsparaelMetal.txt
Scans folder
Traceability folder



eMule:
Disponible sólo a los usuarios


Logs
CD ONE:

Código
Exact Audio Copy V1.0 beta 3 from 29. August 2011

EAC extraction logfile from 13. September 2013, 22:22

Deep Purple / In Concert with the London Symphony Orchestra

Used drive  : HL-DT-STDVDRAM GH22NS50   Adapter: 3  ID: 1

Read mode               : Secure
Utilize accurate stream : Yes
Defeat audio cache      : Yes
Make use of C2 pointers : No

Read offset correction                      : 667
Overread into Lead-In and Lead-Out          : No
Fill up missing offset samples with silence : Yes
Delete leading and trailing silent blocks   : No
Null samples used in CRC calculations       : Yes
Used interface                    : Native Win32 interface for Win NT & 2000

Used output format              : User Defined Encoder
Selected bitrate                : 32 kBit/s
Quality                         : High
Add ID3 tag                     : Yes
Command line compressor         : C:\Program Files (x86)\Exact Audio Copy\FLAC.EXE
Additional command line options : -8 -V -T "ARTIST=%artist%" -T "TITLE=%title%" -T "ALBUM=%albumtitle%" -T "DATE=%year%" -T "TRACKNUMBER=%tracknr%" -T "GENRE=%genre%" -T "COMMENT=%comment%" %source% -o %dest%

TOC of the extracted CD

        Track |   Start  |  Length  | Start sector | End sector    
       ---------------------------------------------------------
           1  |  0:00.00 |  8:36.58 |         0    |    38757      
           2  |  8:36.58 |  6:44.27 |     38758    |    69084      
           3  | 15:21.10 |  4:01.25 |     69085    |    87184      
           4  | 19:22.35 |  4:40.09 |     87185    |   108193      
           5  | 24:02.44 |  4:51.44 |    108194    |   130062      
           6  | 28:54.13 |  4:02.53 |    130063    |   148265      
           7  | 32:56.66 |  4:43.08 |    148266    |   169498      
           8  | 37:39.74 |  4:38.13 |    169499    |   190361      
           9  | 42:18.12 |  9:27.19 |    190362    |   232905      

Range status and errors

Selected range

        Filename G:\MUSIC\Rivfader [EsparaelMetal]\Deep Purple - In Concert with the London Symphony Orchestra (CD ONE).wav

        Peak level 100.0 %
        Extraction speed 1.7 X
        Range quality 100.0 %
        Copy CRC EA4D5DF8
        Copy OK

No errors occurred

       
AccurateRip summary
       
Track  1  cannot be verified as accurate (confidence 2)  [7352F965], AccurateRip returned [953397CC]  (AR v2)
Track  2  cannot be verified as accurate (confidence 2)  [C9BE303B], AccurateRip returned [9D207E6E]  (AR v2)
Track  3  cannot be verified as accurate (confidence 2)  [ECD7F8CD], AccurateRip returned [180C1A2A]  (AR v2)
Track  4  cannot be verified as accurate (confidence 2)  [D13CFCDE], AccurateRip returned [6CDB2819]  (AR v2)
Track  5  cannot be verified as accurate (confidence 2)  [2764F3E8], AccurateRip returned [94448CA8]  (AR v2)
Track  6  cannot be verified as accurate (confidence 2)  [F7086130], AccurateRip returned [D5CC480A]  (AR v2)
Track  7  cannot be verified as accurate (confidence 2)  [CFC4264E], AccurateRip returned [6053E0F8]  (AR v2)
Track  8  cannot be verified as accurate (confidence 2)  [B04BE4FB], AccurateRip returned [7EEEB154]  (AR v2)
Track  9  cannot be verified as accurate (confidence 2)  [885F95D0], AccurateRip returned [54AEC704]  (AR v2)
       
No tracks could be verified as accurate
You may have a different pressing from the one(s) in the database

End of status report

---- CUETools DB Plugin V2.1.3

[CTDB TOCID: fZGzvEFlPszg8wyWBLvSPsyJQwI-] found, Submit result: database access error: Anulada la solicitud: La solicitud fue cancelada.
[38f477f2] (1/1) Differs in 72 samples @15:59:60-15:59:61
You can use CUETools to repair this rip.

==== Log checksum 6305E1918F2BD2EF3FC03C456DCAE3B4EEF3B143DBFA88B189A0A72CEC5DD2BA ====[size=8]


CD TWO:

Código
Exact Audio Copy V1.0 beta 3 from 29. August 2011

EAC extraction logfile from 12. September 2013, 16:46

Deep Purple / In Concert with the London Symphony Orchestra

Used drive  : TSSTcorpCDDVDW SE-S084F   Adapter: 4  ID: 3

Read mode               : Secure
Utilize accurate stream : Yes
Defeat audio cache      : Yes
Make use of C2 pointers : No

Read offset correction                      : 6
Overread into Lead-In and Lead-Out          : No
Fill up missing offset samples with silence : Yes
Delete leading and trailing silent blocks   : No
Null samples used in CRC calculations       : Yes
Used interface                    : Native Win32 interface for Win NT & 2000

Used output format              : User Defined Encoder
Selected bitrate                : 32 kBit/s
Quality                         : High
Add ID3 tag                     : Yes
Command line compressor         : C:\Program Files (x86)\Exact Audio Copy\FLAC.EXE
Additional command line options : -8 -V -T "ARTIST=%artist%" -T "TITLE=%title%" -T "ALBUM=%albumtitle%" -T "DATE=%year%" -T "TRACKNUMBER=%tracknr%" -T "GENRE=%genre%" -T "COMMENT=%comment%" %source% -o %dest%

TOC of the extracted CD

        Track |   Start  |  Length  | Start sector | End sector    
       ---------------------------------------------------------
           1  |  0:00.00 | 17:03.38 |         0    |    76762      
           2  | 17:03.38 | 19:43.65 |     76763    |   165552      
           3  | 36:47.28 | 13:28.37 |    165553    |   226189      
           4  | 50:15.65 |  4:50.68 |    226190    |   248007      
           5  | 55:06.58 |  5:38.51 |    248008    |   273408      
           6  | 60:45.34 |  7:44.24 |    273409    |   308232      
           7  | 68:29.58 |  6:43.54 |    308233    |   338511      

Range status and errors

Selected range

        Filename C:\Users\SAYTEC\Desktop\Deep Purple - In Concert with the London Symphony Orchestra.wav

        Peak level 100.0 %
        Extraction speed 2.1 X
        Range quality 99.9 %
        Test CRC 15573FC0
        Copy CRC 15573FC0
        Copy OK

No errors occurred

       
AccurateRip summary
       
Track  1  cannot be verified as accurate (confidence 2)  [AB0D26F3], AccurateRip returned [55D39863]  (AR v2)
Track  2  cannot be verified as accurate (confidence 2)  [6B3C7AC8], AccurateRip returned [A8D6BFB7]  (AR v2)
Track  3  cannot be verified as accurate (confidence 2)  [6F3B80E5], AccurateRip returned [521CD2A3]  (AR v2)
Track  4  cannot be verified as accurate (confidence 2)  [AA81BF00], AccurateRip returned [89C2353D]  (AR v2)
Track  5  cannot be verified as accurate (confidence 2)  [42CC72B4], AccurateRip returned [9C66C600]  (AR v2)
Track  6  cannot be verified as accurate (confidence 2)  [A38A7CE8], AccurateRip returned [48CDD0F4]  (AR v2)
Track  7  cannot be verified as accurate (confidence 1)  [6BC98791], AccurateRip returned [9FB480FF]  (AR v2)
       
No tracks could be verified as accurate
You may have a different pressing from the one(s) in the database

End of status report

---- CUETools DB Plugin V2.1.3

[CTDB TOCID: .LIcSr4BZImPbG.9CmeWp4D0UeY-] disk not present in database, Submit result: database access error: Anulada la solicitud: La solicitud fue cancelada.

==== Log checksum 3DF38914E934FE9EE89FE9D86A835F7E469208ABD6991D038A781E915D95644F ====[size=8][/[size=8]code[size=8]]

[hr][size=8]([i]Note for quality checkers and those who follow my releases: it was impossible to rip the disc one with the drive that I usually use to get my rips, because of this I had to rip this disc with another drive.)

[hr][URL=http://imageshack.us/photo/my-images/845/xjr9.jpg/][IMG]http://img845.imageshack.us/img845/6484/xjr9.jpg

Uploaded with [URL=http://imageshack.us]ImageShack.us



Agregado (2013-09-17, 11:59 PM)
---------------------------------------------
Note for quality checkers and those who follow my releases: it was impossible to rip the disc one with the drive that I usually use to get my rips, because of this I had to rip this disc with another drive.


Mensaje editado por Rivfader - Miércoles, 2013-09-18, 0:00 AM
 
unica723Fecha: Viernes, 2013-09-20, 9:19 AM | Mensaje # 2
EsparaelMetalTeaM
Grupo: Administradores
Mensajes: 15964
Reputación: 121
Estatus: Offline
gracias Rivfader

 
Forum » LOSSLESS [APE-FLAC-WavPack...] » Rock-Hard Rock-Heavy Metal » Deep Purple [1999] [2CD] In Concert... (with the London Symphony Orchestra.)
Página 1 de 11
Búscar:

Hoy nos han visitado:
daguirre, Eddie_Cisneros, Xavierin, vict67

Este sitio no contiene ningún tipo de fichero ó archivo que viole la propiedad intelectual.
Somos un foro gratuito y sin ningun lucro implicito.
EsparaelMetal no se hace responsable de cualquier posible violacion a cosa con copyright.
Todo lo aquí publicado ha sido encontrado en el libre internet.
EsparaelMetal@2010 Algunos derechos reservados

Web optimizada para una resolucion de 1024x768


Copyright MyCorp © 2017