Inicio|Registrarse | Entrada HolaVisitante|RSS
[ Mensajes nuevos · Usuarios · Normas del foro · Buscar · RSS ]
Página 1 de 11
Moderador del foro: jarpomarx, TUCO 
Forum » LOSSLESS [APE-FLAC-WavPack...] » Rock-Hard Rock-Heavy Metal » Ramones - Greatest Hits [2006] (Flac, Tracks+.cue)
Ramones - Greatest Hits [2006]
unica723Fecha: Lunes, 2013-06-03, 11:28 AM | Mensaje # 1
EsparaelMetalTeaM
Grupo: Administradores
Mensajes: 15966
Reputación: 121
Estatus: Offline
Ramones - Greatest Hits [2006]



Year of release: 2012 | Quality: Flac, Tracks+.cue | Bitrate: lossless | Total size: 363 MB

Genre : Punk, Rock
01 Blitzkreig Bop (2:12)
02 Beat on the Brat (2:32)
03 Judy Is a Punk (1:32)
04 I Wanna Be Your Boyfriend (2:26)
05 Sheena Is a Punk Rocker (2:47)
06 Pinhead (2:44)
07 Commando (1:52)
08 Rockaway Beach (2:06)
09 We're a Happy Family (2:39)
10 Cretin Hop (1:55)
11 Teenage Lobotomy (2:01)
12 I Wanna Be Sedated (2:29)
13 I Just Wanna Have Something to Do (2:41)
14 Rock ‘N' Roll High School (2:19)
15 Baby, I Love You (3:44)
16 Do You Remember Rock ‘N' Roll Radio (3:49)
17 KKK Took My Baby Away (2:30)
18 Outsider (2:10)
19 Pet Sematary (Single Version) (3:32)
20 Wart Hog (1:54)
Log
EAC extraction logfile from 21. June 2011, 17:33
Ramones / Greatest Hits
Read offset correction : 103
Selected bitrate : 128 kBit/s
TOC of the extracted CD
Track | Start | Length | Start sector | End sector
-------------------
1 | 0:00.00 | 2:12.55 | 0 | 9954
2 | 2:12.55 | 2:32.50 | 9955 | 21404
3 | 4:45.30 | 1:32.22 | 21405 | 28326
4 | 6:17.52 | 2:26.29 | 28327 | 39305
5 | 8:44.06 | 2:47.20 | 39306 | 51850
6 | 11:31.26 | 2:44.18 | 51851 | 64168
7 | 14:15.44 | 1:52.19 | 64169 | 72587
8 | 16:07.63 | 2:06.49 | 72588 | 82086
9 | 18:14.37 | 2:39.31 | 82087 | 94042
10 | 20:53.68 | 1:55.69 | 94043 | 102736
11 | 22:49.62 | 2:01.34 | 102737 | 111845
12 | 24:51.21 | 2:29.35 | 111846 | 123055
13 | 27:20.56 | 2:41.46 | 123056 | 135176
14 | 30:02.27 | 2:19.10 | 135177 | 145611
15 | 32:21.37 | 3:44.42 | 145612 | 162453
16 | 36:06.04 | 3:49.35 | 162454 | 179663
17 | 39:55.39 | 2:30.42 | 179664 | 190955
18 | 42:26.06 | 2:10.10 | 190956 | 200715
19 | 44:36.16 | 3:32.64 | 200716 | 216679
20 | 48:09.05 | 1:54.43 | 216680 | 225272
Track 1
Peak level 96.9 %
Extraction speed 1.1 X
Track quality 100.0 %
Test CRC BD0F20AB
Copy CRC BD0F20AB
Accurately ripped (confidence 7) [D467DE2D]
Copy OK
Track 2
Peak level 96.0 %
Extraction speed 1.2 X
Track quality 100.0 %
Test CRC 9A413193
Copy CRC 9A413193
Accurately ripped (confidence 7) [212E9E5F]
Copy OK
Track 3
Peak level 95.5 %
Extraction speed 0.8 X
Track quality 99.8 %
Test CRC 409E93D5
Copy CRC 409E93D5
Accurately ripped (confidence 7) [B8336672]
Copy OK
Track 4
Peak level 96.8 %
Extraction speed 1.3 X
Track quality 100.0 %
Test CRC 9B5CDD39
Copy CRC 9B5CDD39
Accurately ripped (confidence 7) [E57A35DA]
Copy OK
Track 5
Peak level 99.8 %
Extraction speed 1.4 X
Track quality 100.0 %
Test CRC 2DE10F48
Copy CRC 2DE10F48
Accurately ripped (confidence 7) [68E59C49]
Copy OK
Track 6
Peak level 91.2 %
Extraction speed 1.5 X
Track quality 100.0 %
Test CRC 392B0E82
Copy CRC 392B0E82
Accurately ripped (confidence 7) [E1308054]
Copy OK
Track 7
Peak level 98.0 %
Extraction speed 1.4 X
Track quality 100.0 %
Test CRC 4CFC326C
Copy CRC 4CFC326C
Accurately ripped (confidence 7) [0883152C]
Copy OK
Track 8
Peak level 93.1 %
Extraction speed 1.5 X
Track quality 100.0 %
Test CRC F361C40F
Copy CRC F361C40F
Accurately ripped (confidence 7) [7E5CD347]
Copy OK
Track 9
Peak level 94.1 %
Extraction speed 1.4 X
Track quality 99.9 %
Test CRC 476D8D02
Copy CRC 476D8D02
Accurately ripped (confidence 7) [C7F30BA6]
Copy OK
Track 10
Peak level 92.2 %
Extraction speed 1.5 X
Track quality 100.0 %
Test CRC 237056DF
Copy CRC 237056DF
Accurately ripped (confidence 7) [ECC263DC]
Copy OK
Track 11
Peak level 92.9 %
Extraction speed 1.6 X
Track quality 100.0 %
Test CRC 8C033766
Copy CRC 8C033766
Accurately ripped (confidence 7) [B80BE1F9]
Copy OK
Track 12
Peak level 99.0 %
Extraction speed 1.8 X
Track quality 100.0 %
Test CRC AAA07594
Copy CRC AAA07594
Accurately ripped (confidence 7) [E1CEB09F]
Copy OK
Track 13
Peak level 97.7 %
Extraction speed 1.8 X
Track quality 100.0 %
Test CRC 207EF558
Copy CRC 207EF558
Accurately ripped (confidence 7) [B2B046BD]
Copy OK
Track 14
Peak level 97.5 %
Extraction speed 1.5 X
Track quality 99.9 %
Test CRC E53F13CF
Copy CRC E53F13CF
Accurately ripped (confidence 7) [A5286CC0]
Copy OK
Track 15
Peak level 99.7 %
Extraction speed 2.1 X
Track quality 100.0 %
Test CRC C16A1A1F
Copy CRC C16A1A1F
Accurately ripped (confidence 7) [DE41DE30]
Copy OK
Track 16
Peak level 92.0 %
Extraction speed 1.9 X
Track quality 99.9 %
Test CRC 36979436
Copy CRC 36979436
Accurately ripped (confidence 7) [A30F3263]
Copy OK
Track 17
Peak level 91.4 %
Extraction speed 2.1 X
Track quality 100.0 %
Test CRC 11BC1FA4
Copy CRC 11BC1FA4
Accurately ripped (confidence 7) [6A86E180]
Copy OK
Track 18
Peak level 99.8 %
Extraction speed 2.0 X
Track quality 100.0 %
Test CRC 8BF5924D
Copy CRC 8BF5924D
Accurately ripped (confidence 7) [A6559EFB]
Copy OK
Track 19
Peak level 98.0 %
Extraction speed 2.0 X
Track quality 99.9 %
Test CRC 5B09943C
Copy CRC 5B09943C
Accurately ripped (confidence 7) [6C9CD0B1]
Copy OK
Track 20
Peak level 99.8 %
Extraction speed 1.6 X
Track quality 99.9 %
Test CRC A9CD2CE8
Copy CRC A9CD2CE8
Accurately ripped (confidence 7) [A8930501]
Copy OK
All tracks accurately ripped
No errors occurred
End of status report

Cue
REM DATE 2006
REM DISCID 430BBB14
REM COMMENT "ExactAudioCopy v1.0b1?
FILE "01 - Blitzkrieg Bop.wav" WAVE
TRACK 01 AUDIO
FILE "02 - Beat On The Brat.wav" WAVE
TRACK 02 AUDIO
FILE "03 - Judy Is A Punk.wav" WAVE
TRACK 03 AUDIO
FILE "04 - I Wanna Be Your Boyfriend.wav" WAVE
TRACK 04 AUDIO
FILE "05 - Sheena Is A Punk Rocker (ABC Single Version).wav" WAVE
TRACK 05 AUDIO
FILE "06 - Pinhead.wav" WAVE
TRACK 06 AUDIO
FILE "07 - Commando.wav" WAVE
TRACK 07 AUDIO
FILE "08 - Rockaway Beach.wav" WAVE
TRACK 08 AUDIO
FILE "09 - We're A Happy Family.wav" WAVE
TRACK 09 AUDIO
FILE "10 - Cretin Hop.wav" WAVE
TRACK 10 AUDIO
FILE "11 - Teenage Lobotomy.wav" WAVE
TRACK 11 AUDIO
FILE "12 - I Wanna Be Sedated.wav" WAVE
TRACK 12 AUDIO
FILE "13 - I Just Want To Have Something To Do.wav" WAVE
TRACK 13 AUDIO
FILE "14 - Rock ‘N' Roll High School (Ed Stasium Mix).wav" WAVE
TRACK 14 AUDIO
FILE "15 - Baby, I Love You.wav" WAVE
TRACK 15 AUDIO
FILE "16 - Do You Remember Rock ‘N' Roll Radio.wav" WAVE
TRACK 16 AUDIO
FILE "17 - The KKK Took My Baby Away.wav" WAVE
TRACK 17 AUDIO
FILE "18 - Outsider.wav" WAVE
TRACK 18 AUDIO
FILE "19 - Pet Sematary (Single Version).wav" WAVE
TRACK 19 AUDIO
FILE "20 - Wart Hog.wav" WAVE
TRACK 20 AUDIO

Links are Interchangeable
Disponible sólo a los usuarios
Archivos adjuntos: 5214852.jpg(34Kb)


 
Forum » LOSSLESS [APE-FLAC-WavPack...] » Rock-Hard Rock-Heavy Metal » Ramones - Greatest Hits [2006] (Flac, Tracks+.cue)
Página 1 de 11
Búscar:

Hoy nos han visitado:
Slayer91, eldiegobostero, mariaj, linomascelli

Este sitio no contiene ningún tipo de fichero ó archivo que viole la propiedad intelectual.
Somos un foro gratuito y sin ningun lucro implicito.
EsparaelMetal no se hace responsable de cualquier posible violacion a cosa con copyright.
Todo lo aquí publicado ha sido encontrado en el libre internet.
EsparaelMetal@2010 Algunos derechos reservados

Web optimizada para una resolucion de 1024x768


Copyright MyCorp © 2017